annabelle comes home 2019 PREACHER S04E04 fear the walking dead once upon a time in hollywood 2019 dark phoenix 2019 Last Week Tonight rocketman 2019 yts ethd 幼女 ettv avengers endgame the secret life of pets 2 2019 night hunter 2019 shazam 2019 the boys crawl 2019 spider man far from home 2019 alita battle angel 2019 0 toy story 4 2019 the lion king 2019 suits uhd hindi Mission Mangal etrg evo Instinct  john wick chapter 3 – parabellum 2019 long shot 2019 dora and the lost city of gold 2019 godzilla king of the monsters 2019 ddr midsommar 2019 the hustle 2019 aladdin 2019 avengers endgame 2019 good boys 2019 wwe yesterday 2019 men in black international 2019 bachelor in paradise s06e05 mindhunter Bachelor in Paradise fear the walking dead s05e10 fast furious presents hobbs shaw 2019 the kitchen 2019 love hip hop hollywood s06e03 john wick anna 2019 2.0 (2018) brightburn 2019 Xxx pennyworth s01e05 hellboy 2019 men in black the angry birds movie 2 2019 captain marvel 2019 etmovies pennyworth john wick 3 ma 2019 godzilla young justice sextuplets 2019 47 meters down uncaged 2019 scary stories to tell in the dark 2019 Men in Black International Batla House 
Warning! Use a VPN When Downloading Torrents!
Your IP Address is 34.238.189.171,163.172.29.119. Location is United Kingdom
Your Internet Provider is tracking your torrent activity! Hide your IP ADDRESS with a VPN!
We strongly recommend using ExpressVPN to anonymize your torrenting. 30 Day Money Back Guarantee!
Try it Now!
ETTV Recommended TV Shows
WWE RAW 2019 08 19 WEB x264-FMN [TJET] torrent
Bachelor.In.Paradise.S06E05.WEB.h264-TBS[ettv] torrent
Pandora.2019.S01E06.HDTV.x264-SVA[ettv] torrent
Animal.Kingdom.US.S04E13.WEBRip.x264-TBS[ettv] torrent

ETTV Recommended SD
One.Last.Night.2019.HDRip.XviD.AC3-EVO[EtMovies] torrent
Camp.Wedding.2019.HDRip.XviD.AC3-EVO[EtMovies] torrent
Men in Black International.2019.HDRip.XViD-ETRG torrent
Hoax.2019.HDRip.XViD-ETRG torrent

ETTV Recommended HD
Canal.Street.2019.1080p.WEB-DL.H264.AC3-EVO[EtHD] torrent
The.Tomorrow.Man.2019.1080p.WEB-DL.H264.AC3-EVO[EtHD] torrent
Men in Black International 2019.MULTi.1080p.AMZN.WEB-Rip.DDP5.1.HEVC-DDR[EtHD] torrent
The Secret Life of Pets 2 2019.BluRay.1080p.TrueHD.Atmos.7.1.HEVC-DDR[EtHD] torrent

ETTV Recommended UHD
Suicide Squad 2016.MULTi.UHD.2160p.Blu-ray.HDR.ATMOS.7.1.HEVC-DDR torrent
Brawl in Cell Block 99 2017.UHD.BluRay.2160p.SDR.DTS-HDMA.5.1.HEVC-DDR torrent
Mayhem 2017.2160p.UHD.BluRay.SDR.DTS-HDMA.5.1.HEVC-DDR torrent
Men in Black International 2019.2160p.WEB-Rip.HDR.DDP.5.1.HEVC-DDR[EtHD] torrent

ETTV Recommended Cam
Horrible Histories The Movie 2019 720p HDCAM-ORCA88 torrent
47 Meters Down Uncaged 2019 720p HDCAMRip-GETB8[MOVCR] torrent
Good Boys 2019 HDCAM x264 AC3-ETRG torrent
Crawl 2019 NEW HDCAM x264 AC3-ETRG torrent

ETTV Recommended Foreign
Mission Mangal (2019) 1-3 Pre DvD Rip x264 AC3-DusIcTv torrent
Overlord (2018) x264 720p BluRay {Dual Audio} [Hindi ORG DD 5.1 + English 2.0] Exclusive By DREDD torrent
Family 420 Once Again (2019) Punjabi 1-3 WebRip x264 DDP 5.1 Esub-DusIcTv torrent
Game Over (2019) 720p Hindi Proper HDRip x264 DD5.1 (224kbps) 1.3GB ESub - MovCr torrent


Download Torrent "Suits (2011) Season 2 S02 (1080p BluRay x265 HEVC 10bit AAC 5.1 Vyndros)"

IMDB Details
Description:

On the run from a drug deal gone bad, Mike Ross, a brilliant college dropout, finds himself a job working with Harvey Specter, one of New York City's best lawyers.

Genre:

Comedy, Drama

Download Torrent (Magnet)
Download Torrent (File)
Seeds: 384
Leechers: 174
Completed: 2,091 
Last Checked: 14-08-2019 16:02:01


Loading...
Details
Title:Suits (2011) Season 2 S02 (1080p BluRay x265 HEVC 10bit AAC 5.1 Vyndros)
Description:






Media Information

General
Format                                   : Matroska
Format version                           : Version 4 / Version 2
File size                                : 1.06 GiB
Duration                                 : 43 min 4 s
Overall bit rate                         : 3 518 kb/s
Movie name                               : Suits S02E13 1080p Blu-ray Remux AVC DTS-HD MA 5.1 - DTHD
Encoded date                             : UTC 2019-08-13 06:59:48
Writing application                      : mkvmerge v20.0.0 ('I Am The Sun') 64-bit
Writing library                          : libebml v1.3.5 + libmatroska v1.4.8
Writing frontend                         : StaxRip v1.7.0.6

Video
ID                                       : 1
Format                                   : HEVC
Format/Info                              : High Efficiency Video Coding
Format profile                           : Main [email protected]@Main
Codec ID                                 : V_MPEGH/ISO/HEVC
Duration                                 : 43 min 4 s
Bit rate                                 : 3 039 kb/s
Width                                    : 1 920 pixels
Height                                   : 1 080 pixels
Display aspect ratio                     : 16:9
Frame rate mode                          : Constant
Frame rate                               : 23.976 (24000/1001) FPS
Color space                              : YUV
Chroma subsampling                       : 4:2:0
Bit depth                                : 10 bits
Bits/(Pixel*Frame)                       : 0.061
Stream size                              : 937 MiB (86%)
Writing library                          : x265 3.1+5-9c5c9cef2a86:[Windows][MSVC 1921][64 bit] 10bit
Encoding settings                        : cpuid=1111039 / frame-threads=2 / numa-pools=4 / wpp / no-pmode / no-pme / no-psnr / ssim / log-level=2 / input-csp=1 / input-res=1920x1080 / interlace=0 / total-frames=61974 / level-idc=0 / high-tier=1 / uhd-bd=0 / ref=3 / no-allow-non-conformance / no-repeat-headers / annexb / no-aud / no-hrd / info / hash=0 / no-temporal-layers / open-gop / min-keyint=23 / keyint=250 / gop-lookahead=0 / bframes=8 / b-adapt=2 / b-pyramid / bframe-bias=0 / rc-lookahead=80 / lookahead-slices=6 / scenecut=40 / radl=0 / no-splice / no-intra-refresh / ctu=64 / min-cu-size=8 / no-rect / no-amp / max-tu-size=32 / tu-inter-depth=1 / tu-intra-depth=1 / limit-tu=0 / rdoq-level=0 / dynamic-rd=0.00 / no-ssim-rd / signhide / no-tskip / nr-intra=0 / nr-inter=0 / no-constrained-intra / no-strong-intra-smoothing / max-merge=3 / limit-refs=1 / no-limit-modes / me=3 / subme=5 / merange=57 / temporal-mvp / weightp / no-weightb / no-analyze-src-pics / deblock=0:0 / sao / no-sao-non-deblock / rd=3 / early-skip / no-rskip / no-fast-intra / no-tskip-fast / no-cu-lossless / b-intra / no-splitrd-skip / rdpenalty=0 / psy-rd=2.00 / psy-rdoq=0.00 / no-rd-refine / no-lossless / cbqpoffs=0 / crqpoffs=0 / rc=crf / crf=20.0 / qcomp=0.60 / qpstep=4 / stats-write=0 / stats-read=0 / ipratio=1.40 / pbratio=1.30 / aq-mode=3 / aq-strength=1.00 / cutree / zone-count=0 / no-strict-cbr / qg-size=32 / no-rc-grain / qpmax=69 / qpmin=0 / no-const-vbv / sar=0 / overscan=0 / videoformat=5 / range=0 / colorprim=2 / transfer=2 / colormatrix=2 / chromaloc=0 / display-window=0cll=0,0 / min-luma=0 / max-luma=1023 / log2-max-poc-lsb=8 / vui-timing-info / vui-hrd-info / slices=1 / no-opt-qp-pps / no-opt-ref-list-length-pps / no-multi-pass-opt-rps / scenecut-bias=0.05 / no-opt-cu-delta-qp / no-aq-motion / no-hdr / no-hdr-opt / no-dhdr10-opt / no-idr-recovery-sei / analysis-reuse-level=5 / scale-factor=0 / refine-intra=0 / refine-inter=0 / refine-mv=0 / refine-ctu-distortion=0 / no-limit-sao / ctu-info=0 / no-lowpass-dct / refine-analysis-type=0 / copy-pic=1 / max-ausize-factor=1.0 / no-dynamic-refine / no-single-sei / no-hevc-aq / no-svt / no-field / qp-adaptation-range=1.00
Default                                  : Yes
Forced                                   : No

Audio
ID                                       : 2
Format                                   : AAC
Format/Info                              : Advanced Audio Codec
Format profile                           : LC
Codec ID                                 : A_AAC
Duration                                 : 43 min 4 s
Bit rate                                 : 448 kb/s
Channel(s)                               : 6 channels
Channel positions                        : Front: L C R, Side: L R, LFE
Sampling rate                            : 48.0 kHz
Frame rate                               : 46.875 FPS (1024 spf)
Compression mode                         : Lossy
Stream size                              : 138 MiB (13%)
Language                                 : English
Default                                  : Yes
Forced                                   : No

Subtitle
ID                                       : 3
Format                                   : PGS
Muxing mode                              : zlib
Codec ID                                 : S_HDMV/PGS
Codec ID/Info                            : Picture based subtitle format used on BDs/HD-DVDs
Duration                                 : 42 min 27 s
Bit rate                                 : 86.4 kb/s
Count of elements                        : 1798
Stream size                              : 26.2 MiB (2%)
Language                                 : English
Default                                  : No
Forced                                   : No

Source Information
BluRay Remux


Category:TV > HEVC/x265
Lang:English  English
Total Size:16.38 GB
Info Hash:c50fe2a974b88ac04d2d0885c79e91e288114dfc
Added By:Vyndros
Date Added:14-08-2019 16:01:57

Files

File List: 
 File Size
Suits.S02E01.She.Knows.1080p.10bit.BluRay.AAC5.1.HEVC-Vyndros.mkv961 MB
Suits.S02E02.The.Choice.1080p.10bit.BluRay.AAC5.1.HEVC-Vyndros.mkv974 MB
Suits.S02E03.Meet.the.New.Boss.1080p.10bit.BluRay.AAC5.1.HEVC-Vyndros.mkv993 MB
Suits.S02E04.Discovery.1080p.10bit.BluRay.AAC5.1.HEVC-Vyndros.mkv1.05 GB
Suits.S02E05.Break.Point.1080p.10bit.BluRay.AAC5.1.HEVC-Vyndros.mkv1.06 GB
Suits.S02E06.All.In.1080p.10bit.BluRay.AAC5.1.HEVC-Vyndros.mkv1.07 GB
Suits.S02E07.Sucker.Punch.1080p.10bit.BluRay.AAC5.1.HEVC-Vyndros.mkv1.04 GB
Suits.S02E08.Rewind.1080p.10bit.BluRay.AAC5.1.HEVC-Vyndros.mkv1.19 GB
Suits.S02E09.Asterisk.1080p.10bit.BluRay.AAC5.1.HEVC-Vyndros.mkv1.09 GB
Suits.S02E10.High.Noon.1080p.10bit.BluRay.AAC5.1.HEVC-Vyndros.mkv1.07 GB
Suits.S02E11.Blind-Sided.1080p.10bit.BluRay.AAC5.1.HEVC-Vyndros.mkv983 MB
Suits.S02E12.Blood.in.the.Water.1080p.10bit.BluRay.AAC5.1.HEVC-Vyndros.mkv930 MB
Suits.S02E13.Zane.vs.Zane.1080p.10bit.BluRay.AAC5.1.HEVC-Vyndros.mkv1.06 GB
Suits.S02E14.He's.Back.1080p.10bit.BluRay.AAC5.1.HEVC-Vyndros.mkv1.02 GB
Suits.S02E15.Normandy.1080p.10bit.BluRay.AAC5.1.HEVC-Vyndros.mkv1.05 GB
Suits.S02E16.War.1080p.10bit.BluRay.AAC5.1.HEVC-Vyndros.mkv980 MB



Loading...
Comments

There are currently no comments. Be the first one to write something !